» » » Терраформирование ТВ-1 / Terra Formars TV-1 [13 из 13]

Терраформирование ТВ-1 / Terra Formars TV-1 [13 из 13]

рейтинг 4.2 из 5
  • Добавил: FooBoo
  • Дата: 31-01-2016, 21:32
  • Просмотры: 225699
  • Отзывы: 278
Год: 2014
Жанр: приключения, фантастика, ужасы
Страна: Япония
Количество серий: 13
Продолжительность: 25 мин
Дата выпуска: c 27.09.2014
Режиссер: Хамасаки Хироси
Сасуга Ю
Озвучивание: Cuba77, Trina_D
Перевод: Anku, mutagenb
Тайминг и работа со звуком: Злой загруженный дядя
Студия: Liden Films

Описание: Марс, 4-я от Солнца планета. С давних пор люди мечтают подчинить себе этот суровый, безжизненный мир. Ученые уже не один десяток лет бьются над планами освоения Марса ради блага человечества. Наконец найден способ превратить Красную планету в цветущий сад, колонию для людей, которым стало тесно на Земле. Проект Терраформации запущен! И вот, спустя сотни лет, группа отчаянных смельчаков отправляется на Марс для завершения проекта. Но кто это? Кто встречает героев на пороге их нового дома? Пришельцы из другой галактики? Или же… Последствия безумного эксперимента?!
Скриншоты
показано из 12 right left
Статистика торрента
Скачать в формате
Серии в торренте: 01-13
Раздают: 0 Качают: 0 Размер: 1.25 GB Скачали: 1425
Имя файла: [AniDub]_TerraFormars_[Cuba77_Trina_D]_[PSP].torrent
Последняя активность: 18 декабря 2021 18:56
Технические данные:
Контейнер: mp4
Видео: H264, 480x272, 23.976 fps
Аудио: RU - AAC, stereo, 48000 Hz, 128 kbps
Субтитры: нет
Управление: [обновить]
Серии в торренте: 01-13
Раздают: 0 Качают: 0 Размер: 3.06 GB Скачали: 737
Имя файла: [AniDub]_TerraFormars_[Cuba77_Trina_D]_[HWP].torrent
Последняя активность: 7 апреля 2022 15:02
Технические данные:
Контейнер: avi 
Видео: XviD, 704x396, ~1500 Kbps, 23.976 fps
Аудио: RU - mp3, stereo, 48000 Hz, 192 kbps
Субтитры: нет
Управление: [обновить]
Раздают: 0 Качают: 1 Размер: 7.14 GB Скачали: 1925
Имя файла: [AniDub]_TerraFormars_[BDRip720p]_[Trina_D_Cuba77].torrent
Последняя активность: 22 мая 2022 23:41
Технические данные:
Video
ID                          : 1
Format                      : AVC
Format profile              : [email protected]
Format settings, CABAC      : Yes
Format settings, ReFrames   : 4 frames
Duration                    : 23mn 40s
Bit rate                    : 1 774 Kbps
Width                       : 1 280 pixels ~ 3 210 Kbps
Height                      : 720 pixels
Display aspect ratio        : 16:9
Frame rate                  : 23.976 (24000/1001) fps
Chroma subsampling          : 4:2:0
Bit depth                   : 8 bits

Audio #1
ID                          : 2
Format                      : AAC
Format profile              : LC
Codec ID                    : A_AAC
Duration                    : 23mn 40s
Bit rate                    : 192 Kbps
Channel(s)                  : 2 channels
Channel positions           : Front: L R
Sampling rate               : 48.0 KHz
Stream size                 : 32.5 MiB (9%)
Language                    : Russian
Default                     : Yes
Forced                      : No

Audio #2
ID                          : 3
Format                      : AAC
Format profile              : LC
Codec ID                    : A_AAC
Duration                    : 23mn 41s
Bit rate                    : 198 Kbps
Channel(s)                  : 2 channels
Channel positions           : Front: L R
Sampling rate               : 48.0 KHz
Stream size                 : 33.6 MiB (9%)
Language                    : Japanese
Default                     : No
Forced                      : No
Управление: [обновить]
Раздают: 0 Качают: 0 Размер: 5.40 GB Скачали: 15785
Имя файла: [AniDub]_TerraFormars_[720p]_[Cuba77_Trina_D].torrent
Последняя активность: 22 мая 2022 12:10
Управление: [обновить]
Похожие торренты
Отзывы пользователей

off
  • Написал: AxelBlade
  • Дата: 16 марта 2022 19:45
Есть кто живой на BD посидить? Заранее благодарю!
off
  • Написал: WebMaaS
  • Дата: 21 мая 2021 16:12
Дайте кто-нибудь раздачу. Ни TV, ни BD не качаются...
  • Написал: F.E.A.R.
  • Дата: 14 ноября 2018 23:16
BDrip надо, никто не делится.
off
  • Написал: Drakonka
  • Дата: 19 октября 2018 11:29
Цитата: Drakonka
Пожалуйста, раздайте BD 720!

Спасибо за раздачу!
off
  • Написал: Drakonka
  • Дата: 18 октября 2018 02:00
Пожалуйста, раздайте BD 720!
off
  • Написал: Vlad842
  • Дата: 10 сентября 2018 17:08
Раздайте BD 720 пожалуйста
off
  • Написал: HellFalcom
  • Дата: 30 июля 2018 18:33
Почему BD720 никто не раздаёт?...

Спс, вроде начало качаться
off
  • Написал: Ikoma
  • Дата: 4 ноября 2017 20:51
Цитата: FBRUA
Цитата: SuchDoge
Подскажите название песни интро. В оригинале без перевода другая стоит. Тащусь не могу))


I SEE STARS - Murder Mitten

Amazing Break

Перезалейте добавте опенинг и ендиг (Amazing Break Lightning)
off
  • Написал: FBRUA
  • Дата: 26 октября 2016 16:27
Цитата: SuchDoge
Подскажите название песни интро. В оригинале без перевода другая стоит. Тащусь не могу))


I SEE STARS - Murder Mitten
off
  • Написал: SuchDoge
  • Дата: 26 октября 2016 15:30
Подскажите название песни интро. В оригинале без перевода другая стоит. Тащусь не могу))
off
  • Написал: SNIPER6
  • Дата: 7 октября 2016 00:34
Такая лютая хрень, курить ради такого сценария надо было поколениями.
off
  • Написал: evilgamers
  • Дата: 4 сентября 2016 18:09
psp бы из бд, а то смотреть с цензурой отвратительно recourse
Перезалейте без этой глупой цензуры невозможно смотреть.
  • Написал: Nemesis.
  • Дата: 12 апреля 2016 23:48
дайте скорость плиззз
А почему место бошек черные дыры? Че ето за цензура такая?

Ошибка!
Уважаемый посетитель, Вы зашли на сайт как незарегистрированный пользователь.
Мы рекомендуем Вам зарегистрироваться либо войти на сайт под своим именем.
Информация
Посетители, находящиеся в группе Гости, не могут оставлять комментарии к данной публикации.